#TITLE:V3;
#SUBTITLE:Dead Master;
#ARTIST:Beautiful Day;
#TITLETRANSLIT:;
#SUBTITLETRANSLIT:;
#ARTISTTRANSLIT:;
#CREDIT:;
#BANNER:bn.jpg;
#BACKGROUND:bg.jpg;
#LYRICSPATH:;
#CDTITLE:cd.png;
#MUSIC:Beautiful Day - V3 (O2 Version).mp3;
#OFFSET:-0.580;
#SAMPLESTART:38.023;
#SAMPLELENGTH:12.000;
#SELECTABLE:YES;
#BPMS:0.000=160.247;
#STOPS:;
#BGCHANGES:;
// cache tags:
#FIRSTBEAT:1.000;
#LASTBEAT:449.500;
#SONGFILENAME:Songs/Super Dancer Online mania/V3 (Beautiful Day)/Beautiful Day - V3 (O2 Version).sm;
#HASMUSIC:1;
#HASBANNER:1;
#MUSICLENGTH:173.792;
// end cache tags

//---------------dance-single - ----------------
#NOTES:
     dance-single:
     :
     Hard:
     1:
     0.831,0.938,1.000,0.345,1.000,731.000,201.000,60.000,0.000,22.000:
0000
0000
0000
0000
2000
0000
0000
0000
0000
3000
0000
0000
0000
0000
0000
0101
,
0000
0000
0101
0000
0000
1010
0000
0000
0000
0000
0000
0000
0000
0000
0000
0000
,
0001
0100
0000
0000
0100
0010
0000
0000
0000
0000
0001
0000
0000
0000
0010
0000
,
0010
0000
1000
0000
0010
0000
0010
0000
0100
0000
0001
0000
0001
1000
0000
0000
,
0000
0000
0010
0000
0000
0000
0000
0100
0000
0000
0000
0001
0000
0000
0000
1000
,
0000
0000
0000
0010
0000
0000
0000
0100
0000
0000
0000
0001
0000
0000
0000
1000
,
0000
0000
0000
0010
0000
0000
0000
0100
0000
0000
0000
0001
0000
0000
0000
1000
,
0000
0000
0010
0000
0000
0010
0000
0000
0001
0000
0001
0000
0000
0100
0010
0000
,
0010
0000
2000
0000
0000
0000
0000
3000
0000
0010
0000
0010
0000
0000
0100
0000
,
0001
0000
0001
0000
0000
0000
0100
0000
0010
0000
0010
0000
0000
1100
0000
0100
,
0000
0000
0020
0000
0000
0000
0000
0000
0000
0030
0000
0000
0001
0000
0001
0000
,
1000
0000
0000
0010
0000
0000
0100
0000
0000
0100
0000
1000
0000
0000
0010
0000
,
0000
0010
0100
2000
0000
0000
0000
0000
3000
0000
0100
0000
0000
0010
0000
0100
,
0000
1000
0000
0200
0000
0000
0000
0000
0300
0000
0000
0000
0020
0000
0000
0000
,
0000
0030
0000
0000
0001
0000
0001
0000
0000
0010
0000
0010
0000
0000
1000
0000
,
0000
0010
0000
0010
0000
0100
0000
0010
0000
0000
0100
0000
0010
0000
0000
1000
,
0000
0000
0010
0000
0000
0100
0000
0000
0020
0000
0000
0000
0000
0000
0000
0000
,
0000
0000
0000
0000
,
0000
0030
0000
0000
0001
0000
0001
0000
0100
0001
0010
0000
1000
0100
0010
0000
,
0020
0000
0000
0000
0030
0000
0001
0010
1100
0000
0010
0010
0000
0100
0000
0001
,
0000
0010
0100
0000
0010
0100
0001
0000
0010
0000
0000
1000
0010
0000
0001
0000
,
0100
0010
0000
0011
0000
1000
0000
0110
0000
0010
0100
0000
0001
0000
0000
1101
,
0000
0000
0000
0000
0010
0001
0010
0100
1000
0000
0100
0010
0000
0010
0000
0100
,
0000
0002
0000
0000
0000
0013
0000
1000
0100
0010
0000
0001
0010
0000
0000
1100
,
0000
0200
0000
0000
0000
0312
0000
0010
0003
1100
0000
0100
0010
0000
0001
0010
,
0000
0100
1000
0000
0100
0010
0000
0001
0010
0000
0100
0000
0010
0100
0000
0001
,
1000
0010
0100
0000
0101
0000
0000
0000
1010
0000
1001
0000
0101
0000
0000
0000
,
0010
1100
0000
0101
0000
0101
0000
0010
1000
0000
0010
0000
0010
0100
0001
0100
,
0101
0000
0000
1010
0000
1101
0000
1101
0000
0111
0000
0000
0111
0000
0000
0000
,
1110
0000
0000
0000
0110
0000
0000
0000
0101
0000
0000
0000
0001
0000
0000
1000
,
0010
0000
0010
0200
0000
0000
0000
0000
0000
0310
0000
0001
0010
0000
0000
0010
,
0000
0010
0000
1000
0200
0000
0000
0000
0000
0310
0000
0001
0010
0000
1000
0000
,
0110
0000
0010
0000
0002
0010
0000
0003
0010
0000
0110
1000
0100
0000
0000
0000
,
0010
0001
0000
0000
0001
1100
0000
0000
1101
0000
0000
0000
0110
0000
0000
0000
,
0001
0010
1000
0200
0000
0000
0000
0000
0310
0000
0011
0000
1000
0000
0000
0010
,
0000
0001
0010
0000
0100
0010
0000
0000
1000
0000
0110
0000
0001
0010
0000
0011
,
0000
1000
0000
0100
0010
0000
0001
0000
0010
0000
0100
0000
0010
0000
0000
0101
,
0000
0000
0000
0001
1000
0000
0000
0000
0110
0000
0000
0020
0000
0000
0000
0000
,
0130
1001
0000
0020
0000
0000
0000
0000
0000
0130
1000
0000
0200
0000
0000
0000
,
0010
0300
0001
0010
0000
1200
0000
0000
0000
0000
0010
0300
0002
0020
0000
0000
,
0003
1030
0000
0100
0020
0000
0000
0000
0000
0030
0100
0020
0000
0000
0000
0000
,
0130
0000
0010
0000
0000
1001
0000
0000
0110
0000
0000
0000
1001
0000
0010
0100
,
0000
1001
0000
0110
0000
0001
1000
0010
0100
0000
1001
0000
0110
0000
0001
1000
,
0000
0110
0000
1001
0000
0110
0000
0000
1001
0010
0100
0000
1001
0000
0000
0110
,
0000
0101
0000
0001
0000
1010
0000
0001
0100
0000
0010
0000
0000
1001
0000
0010
,
0100
0000
1001
0000
0110
0000
1001
0000
0010
0100
0000
0102
0000
0000
0000
0000
,
0000
0000
0000
0113
0000
0000
0110
0000
1001
0000
0010
1000
0100
0001
0000
0101
,
0010
1000
0000
0011
0110
0000
0100
0001
0000
1010
0000
0000
0111
0000
0110
0000
,
0101
0000
0010
1000
0000
0001
0010
0000
1001
0000
0010
0000
0100
0001
0000
0101
,
0010
0001
1010
0000
0000
0101
0000
0001
0100
0000
0001
0000
1001
0000
0001
0000
,
0001
0000
1000
0000
0001
0000
0001
0000
0000
0001
0000
0001
0000
1000
0000
0110
,
0000
0000
0001
0010
0000
0100
1000
0000
0110
0000
0011
0000
0001
0010
0100
1000
,
0000
0100
0010
0000
0011
0000
0100
0010
0000
0010
0000
0000
0010
0000
0110
0000
,
0010
0000
0001
0010
0100
1000
0000
0110
0000
0010
0000
0011
0000
1000
0100
0000
,
0010
0010
0000
0011
0000
0100
0000
0011
0000
0100
1000
0110
0000
0000
0011
0000
,
0011
0000
0100
1000
0100
0010
0000
0010
0000
0001
0020
0000
0100
1030
0100
0010
,
0000
0001
0010
0000
0001
0100
0001
0000
0000
0000
0101
0000
0000
0000
0000
0000
,
0001
1100
0000
0000
0000
0001
0100
0000
0000
0000
0001
0100
0001
0100
0000
0000
,
0101
0000
0000
0000
0111
0000
0111
0000
0000
0000
0000
1110
0000
1110
0000
0000
,
0000
1101
0000
1101
0000
0000
0010
1100
0000
0110
0000
0000
0001
0000
0000
0001
,
0000
0020
0000
0000
,
0030
1000
0100
0010
0000
0020
0000
0000
0000
0000
0000
0000
0000
0000
0030
0001
,
0010
0000
0100
1000
0200
0000
0000
0000
0000
0000
0000
0000
0000
0000
0010
0302
,
0000
0010
0000
1003
0000
0100
0010
0000
0010
0000
0011
0000
0100
0000
1000
0100
,
0010
0000
0010
0000
0000
0200
0000
0000
0000
0000
0000
0300
0010
0000
0000
0100
,
1000
0100
0010
0000
0001
0010
0100
1000
0000
0100
0010
0000
0000
0012
0000
0000
,
0003
1000
0100
0000
0000
0020
0000
0000
0000
0000
0000
0000
0000
0000
0000
0000
,
0000
0000
0000
0000
0000
2130
0000
0200
3000
0000
0000
0000
0000
0320
0000
0000
,
0000
0000
0000
0030
0000
0000
0002
0000
0010
0103
1000
0100
0000
0010
0000
0001
,
0010
0000
0100
0000
0000
0100
0000
1000
0100
0000
0012
0000
0010
0000
0003
2100
,
0000
0100
3010
0000
0000
0011
0000
0100
1000
0100
0000
0010
0000
0001
0010
0000
,
0100
0000
0010
0000
0000
0110
0000
0000
0011
0000
0100
1000
0000
0100
0010
0000
,
0010
0000
0001
0010
0000
0100
1000
0100
0000
0010
0000
0010
0000
0002
0010
0000
,
0100
2000
0003
0100
3000
0010
0000
0010
0000
0001
0010
0000
0000
2100
0000
0100
,
0000
3000
0010
0000
0010
0002
0000
0010
0000
0103
2000
0000
0100
0010
3000
0000
,
0010
0000
0011
0000
0000
0000
2000
0100
0000
3000
0010
0000
0010
0000
0000
0100
,
0010
0000
0010
0000
0000
0002
0000
0000
0000
0000
0000
0000
0000
0000
0000
0000
,
0000
0000
0000
0003
0000
0110
0000
0110
0000
1001
0000
0000
0110
0010
0100
0000
,
1001
0000
0000
0110
0000
0120
0000
0000
0000
0000
0000
0000
0000
0000
0030
0100
,
0000
0100
0000
0010
0000
0010
2000
0000
0000
0000
0000
0000
0000
0000
0000
0000
,
0000
3000
0010
0000
0010
0000
0001
0010
0000
0200
0000
0000
0000
0000
0000
0000
,
0000
0000
0000
0000
0000
0000
0000
0000
0000
0000
0310
0000
0010
0000
0000
0001
,
0010
2000
0000
0110
3000
0020
0000
0000
0000
0000
0000
0000
0000
0000
0000
0000
,
0000
0000
0000
0000
,
0000
0000
0030
0000
0000
0000
0000
0010
0100
0000
0010
0000
0010
0000
0010
0000
,
0000
1001
0000
0010
0000
0100
0010
0000
1001
0000
0010
0000
0110
0000
0000
0010
,
0010
0000
0000
0000
0000
0002
0000
0000
0000
0000
0000
0003
0000
0000
0000
0000
,
0000
0000
0000
0000
0000
0000
0000
0000
0000
0000
1001
0000
0000
1001
0000
0000
,
0000
0000
0101
0000
0101
0000
1010
0000
0000
0101
0000
1010
0000
1001
0000
0000
,
0110
0000
1001
0000
0000
0110
0000
1001
0000
1010
0000
0000
1001
0000
0110
0000
,
0000
1001
0000
0110
0000
0101
1000
0000
0000
1010
0000
0000
0000
0101
0000
0000
,
1010
0000
0000
0101
0000
0101
0000
0000
0000
1010
0000
1000
0001
1001
0000
0000
,
0000
0000
0000
0101
0000
0101
0000
1010
0000
0000
0001
0100
0001
0100
0010
1000
,
0000
0000
0000
0101
0000
0001
0100
0001
1000
0000
0010
0100
0000
1001
0000
0000
,
0000
0101
0000
0101
0000
0000
1001
0000
0000
0110
0000
0101
0000
1001
0000
0000
,
0000
0110
0000
0000
0000
1001
0000
0000
0010
0000
0000
0101
0000
0101
1000
0000
,
0000
0000
1001
0000
0001
0000
0101
0000
0000
0000
1001
0000
0000
1001
0000
0110
,
0000
0000
1001
0000
1001
0000
0001
0000
0000
0110
0000
1001
0000
0010
0000
0001
,
1000
1001
0000
0101
0000
1001
0000
1202
,
0000
0000
0000
0000
0000
0000
0303
0000
1010
0000
1000
0010
0000
0102
0000
0000
,
0003
0000
1010
0000
1010
0000
1001
0000
0000
0110
0000
0000
0101
0000
1010
0000
,
0000
0000
0001
0000
0000
0110
0000
0111
0000
0000
0001
1000
0010
0000
0101
0000
,
0000
0000
0001
0000
0010
0100
0001
0110
0000
0000
0001
0000
0010
0100
1001
0010
,
0100
0000
0000
0001
0010
0000
1111
0000
0000
0000
0101
0000
0000
0000
0010
0000
,
0001
1010
0000
0100
0010
0000
0000
0011
0000
0001
0010
0000
0000
0000
0101
0000
,
0000
0000
0101
0000
0000
0000
0101
0000
0000
0000
1010
0000
0000
0010
0100
0000
,
0010
0000
0011
0100
1000
0000
0100
0010
0000
0001
0010
0000
0100
1000
0200
0000
,
0000
0000
0010
0301
0010
0000
1100
0000
0100
0000
0020
0000
0000
0030
0001
0000
,
0000
0000
0020
0000
0000
0000
0000
0130
0000
0000
0010
0000
0000
0000
1000
0001
,
0000
0101
0000
0110
0000
1001
0000
0010
0100
0000
1001
0000
0010
0100
0001
1000
,
0000
0110
0000
0000
0001
0010
0000
0000
0010
2000
0000
0000
0100
3000
0020
0000
,
0000
0000
0000
0000
0000
0000
0030
0000
0011
0000
0001
0000
0001
0000
0000
0020
,
0000
0000
0030
1101
0000
0000
0000
0000
;
